visiting IP: Tor
Are you torrenting safe?
more info

  Torrent details for "Conversations.with.Friends.Season.1.Episode.5.H265.1080p.WEBRip.EzzRips"    Log in to bookmark

Torrent details
Cover
Download
Torrent rating (0 rated)
Controls:
Category:
Language:
English English
Total Size:
530.32 MB
Info Hash:
22f01605b38d986fc04a3e37b05ad860207f9cbe
Added By:
Added:  
25-05-2022 17:59
Views:
99
Health:
Seeds:
5
Leechers:
0
Completed:
16

Similar torrents

  No other torrents available yet for this episode. use IMDB search to search all torrents for this show
Genre:
Drama, Romance
Runtime:
n/A    -    Rating: 7.3
Plot:
n/A

Description
Season: 1
Episode: 5
Series: Conversations with Friends
Air Date: May 15th, 2022
Age Rating: TV-MA
Genre: Drama, Romance
Summary: As Frances and Nick grow closer, things become tense between Bobbi and Frances. Bobbi can sense Nick's attraction to Frances and becomes frustrated with France's reluctance to talk about it. A visit from Melissa's agent raises tensions.
IMDb Rating: 7.3/10 https://www.imdb.com/title/tt12920950/?ref_=ttep_ep5
Director: Lenny Abrahamson
Writers: Susan Soon He Stanton, Meadhbh McHugh
Video Info:
Format                                   : MPEG-4
Format profile                           : Base Media / Version 2
Codec ID                                 : mp42 (mp42/iso2/avc1/mp41)
File size                                : 530 MiB
Duration                                 : 26 min 45 s
Overall bit rate mode                    : Variable
Overall bit rate                         : 2 772 kb/s
Movie name                               : Episode 5
Album                                    : Conversations with Friends: Series 1
Album/Performer                          : BBC TV
Performer                                : BBC Three
Composer                                 : BBC iPlayer
Genre                                    : Drama
Description                              : Frances and Nick grow closer, but tension begins to build between Bobbi and Frances.
Recorded date                            : 2022-05-23T22:00:00+01:00
Encoded date                             : UTC 2022-05-18 01:49:37
Tagged date                              : UTC 2022-05-18 01:49:37
Writing application                      : HandBrake 1.5.1 2022011000
Comment                                  : Frances and Nick grow closer, but tension begins to build between Bobbi and Frances.
LongDescription                          : Frances and Nick grow closer, but things become tense between Bobbi and Frances as Bobbi senses a change in her friend. A visit from Melissa's agent raises tensions in the villa. /  / PLAY: https://www.bbc.co.uk/iplayer/episode/p0c380n8 /  / INFO: https://www.bbc.co.uk/programmes/p0c380n8

Video
ID                                       : 1
Format                                   : AVC
Format/Info                              : Advanced Video Codec
Format profile                           : [email protected]
Format settings                          : CABAC / 4 Ref Frames
Format settings, CABAC                   : Yes
Format settings, Reference frames        : 4 frames
Codec ID                                 : avc1
Codec ID/Info                            : Advanced Video Coding
Duration                                 : 26 min 45 s
Bit rate                                 : 2 602 kb/s
Width                                    : 1 920 pixels
Height                                   : 974 pixels
Display aspect ratio                     : 1.971
Frame rate mode                          : Variable
Frame rate                               : 29.675 FPS
Minimum frame rate                       : 25.000 FPS
Maximum frame rate                       : 30.000 FPS
Color space                              : YUV
Chroma subsampling                       : 4:2:0
Bit depth                                : 8 bits
Scan type                                : Progressive
Bits/(Pixel*Frame)                       : 0.047
Stream size                              : 498 MiB (94%)
Writing library                          : x264 core 164 r3065 ae03d92
Encoding settings                        : cabac=1 / ref=2 / deblock=1:0:0 / analyse=0x1:0x111 / me=hex / subme=6 / psy=1 / psy_rd=1.00:0.00 / mixed_ref=1 / me_range=16 / chroma_me=1 / trellis=1 / 8x8dct=0 / cqm=0 / deadzone=21,11 / fast_pskip=1 / chroma_qp_offset=-2 / threads=3 / lookahead_threads=1 / sliced_threads=0 / nr=0 / decimate=1 / interlaced=0 / bluray_compat=0 / constrained_intra=0 / bframes=3 / b_pyramid=2 / b_adapt=1 / b_bias=0 / direct=1 / weightb=1 / open_gop=0 / weightp=1 / keyint=300 / keyint_min=30 / scenecut=40 / intra_refresh=0 / rc_lookahead=30 / rc=crf / mbtree=1 / crf=22.0 / qcomp=0.60 / qpmin=0 / qpmax=69 / qpstep=4 / vbv_maxrate=20000 / vbv_bufsize=25000 / crf_max=0.0 / nal_hrd=none / filler=0 / ip_ratio=1.40 / aq=1:1.00
Encoded date                             : UTC 2022-05-18 01:49:37
Tagged date                              : UTC 2022-05-18 01:49:37
Color range                              : Limited
Color primaries                          : BT.709
Transfer characteristics                 : BT.709
Matrix coefficients                      : BT.709
Codec configuration box                  : avcC

Audio
ID                                       : 2
Format                                   : AAC LC
Format/Info                              : Advanced Audio Codec Low Complexity
Codec ID                                 : mp4a-40-2
Duration                                 : 26 min 45 s
Source duration                          : 26 min 45 s
Bit rate mode                            : Constant
Bit rate                                 : 161 kb/s
Channel(s)                               : 2 channels
Channel layout                           : L R
Sampling rate                            : 48.0 kHz
Frame rate                               : 46.875 FPS (1024 SPF)
Compression mode                         : Lossy
Stream size                              : 30.7 MiB (6%)
Source stream size                       : 30.7 MiB (6%)
Title                                    : Stereo
Language                                 : English
Default                                  : Yes
Alternate group                          : 1
Encoded date                             : UTC 2022-05-18 01:49:37
Tagged date                              : UTC 2022-05-18 01:49:37
mdhd_Duration                            : 1605120

Text
ID                                       : 3
Format                                   : Timed Text
Muxing mode                              : sbtl
Codec ID                                 : tx3g
Duration                                 : 26 min 30 s
Bit rate mode                            : Variable
Bit rate                                 : 95 b/s
Stream size                              : 18.4 KiB (0%)
Language                                 : English
Default                                  : Yes
Forced                                   : No
Alternate group                          : 3
Encoded date                             : UTC 2022-05-18 01:49:37
Tagged date                              : UTC 2022-05-18 01:49:37
Screenshots:
Image error
Image error
Image error
Image error
Image error
Image error
Image error
Image error
Image error
Image error

  User comments    Sort newest first

No comments have been posted yet.



Post anonymous comment
  • Comments need intelligible text (not only emojis or meaningless drivel).
  • No upload requests, visit the forum or message the uploader for this.
  • Use common sense and try to stay on topic.

  • :) :( :D :P :-) B) 8o :? 8) ;) :-* :-( :| O:-D Party Pirates Yuk Facepalm :-@ :o) Pacman Shit Alien eyes Ass Warn Help Bad Love Joystick Boom Eggplant Floppy TV Ghost Note Msg


    CAPTCHA Image 

    Anonymous comments have a moderation delay and show up after 15 minutes



      Sitefriends