visiting IP: Tor
Are you torrenting safe?
more info

  Torrent details for "Black Crab (Svart Krabba)(2022) [Turkish Dubbed] WEB-DLRip Saicord"    Log in to bookmark

Torrent details
Please be advised this upload has ads cut or watermarked into the video. click here for more info
Cover
Download
Torrent rating (0 rated)
Controls:
Category:
Language:
Turkish Turkish
Total Size:
1.13 GB
Info Hash:
004d6f58a54b371b3c3e754ac08bca7b26170a11
Added By:
Added:  
25-05-2022 17:47
Views:
139
Health:
Seeds:
1
Leechers:
0
Completed:
3

Similar torrents

Name 
DL
Uploader
Size 
S/L 
Added
799.31 MB
41,629
[143/13]
18/03/22 08:20
Uploaded by GalaxyRG:_trusted_uploader: Size 799.31 MBHealth [143/13]Added 18/03/22 08:20
-
2.62 GB
1,179
[55/1]
19/03/22 09:23
Uploaded by 1DNCreW:_verified_uploader: Size 2.62 GBHealth [55/1]Added 19/03/22 09:23
-
3.21 GB
2,834
[48/3]
18/03/22 07:29
Uploaded by TGxMovies:_trusted_uploader: Size 3.21 GBHealth [48/3]Added 18/03/22 07:29
1.40 GB
3,029
[25/3]
18/03/22 08:49
Uploaded by GalaxyRG:_trusted_uploader: Size 1.40 GBHealth [25/3]Added 18/03/22 08:49
-
1.77 GB
658
[22/2]
19/03/22 19:46
Uploaded by Dr4gon:_trusted_uploader: Size 1.77 GBHealth [22/2]Added 19/03/22 19:46
-
1.33 GB
613
[20/2]
18/03/22 18:20
Uploaded by TGxMovies:_trusted_uploader: Size 1.33 GBHealth [20/2]Added 18/03/22 18:20
Title:
Genre:
Action, Adventure, Drama, Sci-Fi, Thriller, War
Runtime:
110 min    -    Rating: 6.5
Director:
Plot:
Set in a post-apocalyptic world, this Swedish action thriller follows six soldiers sent on a covert mission to transport a mysterious package across a frozen archipelago without knowing what dangers lie ahead or who - if anyone - they can trust.

Description
Image error

https://youtu.be/fmjKsL_-rfw

Image error
Image error
Image error
Image error

Video
ID                          : 1
Format                      : AVC
Format/Info                 : Advanced Video Codec
Format profile              : [email protected]
Format settings             : CABAC / 1 Ref Frames
Format settings, CABAC      : Yes
Format settings, ReFrames   : 1 frame
Codec ID                    : avc1
Codec ID/Info               : Advanced Video Coding
Duration                    : 1 h 55 min
Bit rate mode               : Constant
Bit rate                    : 1 200 kb/s
Width                       : 720 pixels
Height                      : 300 pixels
Display aspect ratio        : 2.40:1
Frame rate mode             : Constant
Frame rate                  : 24.000 FPS
Color space                 : YUV
Chroma subsampling          : 4:2:0
Bit depth                   : 8 bits
Scan type                   : Progressive
Bits/(Pixel*Frame)          : 0.231
Stream size                 : 994 MiB (86%)
Codec configuration box     : avcC

Audio
ID                          : 2
Format                      : AAC
Format/Info                 : Advanced Audio Codec
Format profile              : LC
Codec ID                    : mp4a-40-2
Duration                    : 1 h 55 min
Source duration             : 1 h 55 min
Bit rate mode               : Variable
Bit rate                    : 192 kb/s / 192 kb/s
Channel(s)                  : 2 channels
Channel positions           : Front: L R
Sampling rate               : 48.0 kHz
Frame rate                  : 46.875 FPS (1024 SPF)
Compression mode            : Lossy
Stream size                 : 157 MiB (14%)
Source stream size          : 157 MiB (14%)
Default                     : Yes
Alternate group             : 1
mdhd_Duration               : 6951829

  User comments    Sort newest first

No comments have been posted yet.



Post anonymous comment
  • Comments need intelligible text (not only emojis or meaningless drivel).
  • No upload requests, visit the forum or message the uploader for this.
  • Use common sense and try to stay on topic.

  • :) :( :D :P :-) B) 8o :? 8) ;) :-* :-( :| O:-D Party Pirates Yuk Facepalm :-@ :o) Pacman Shit Alien eyes Ass Warn Help Bad Love Joystick Boom Eggplant Floppy TV Ghost Note Msg


    CAPTCHA Image 

    Anonymous comments have a moderation delay and show up after 15 minutes



      Sitefriends